Code:
General
Format                                   : MPEG-4
Format profile                           : Base Media
Codec ID                                 : isom (isom/iso2/avc1/mp41)
File size                                : 2.12 GiB
Duration                                 : 1 h 52 min
Overall bit rate                         : 2 692 kb/s
Writing application                      : Lavf57.41.100

Video
ID                                       : 1
Format                                   : AVC
Format/Info                              : Advanced Video Codec
Format profile                           : [email protected]
Format settings, CABAC                   : Yes
Format settings, ReFrames                : 4 frames
Codec ID                                 : avc1
Codec ID/Info                            : Advanced Video Coding
Duration                                 : 1 h 52 min
Bit rate                                 : 2 559 kb/s
Nominal bit rate                         : 3 500 kb/s
Width                                    : 1 920 pixels
Height                                   : 1 080 pixels
Display aspect ratio                     : 16:9
Frame rate mode                          : Constant
Frame rate                               : 25.000 FPS
Color space                              : YUV
Chroma subsampling                       : 4:2:0
Bit depth                                : 8 bits
Scan type                                : Progressive
Bits/(Pixel*Frame)                       : 0.049
Stream size                              : 2.02 GiB (95%)
Writing library                          : x264 core 148 r2694 3b70645
Encoding settings                        : cabac=1 / ref=3 / deblock=1:0:0 / analyse=0x3:0x113 / me=hex / subme=7 / psy=1 / psy_rd=1.00:0.00 / mixed_ref=1 / me_range=16 / chroma_me=1 / trellis=1 / 8x8dct=1 / cqm=0 / deadzone=21,11 / fast_pskip=1 / chroma_qp_offset=-2 / threads=34 / lookahead_threads=5 / sliced_threads=0 / nr=0 / decimate=1 / interlaced=0 / bluray_compat=0 / constrained_intra=0 / bframes=3 / b_pyramid=2 / b_adapt=1 / b_bias=0 / direct=1 / weightb=1 / open_gop=0 / weightp=2 / keyint=50 / keyint_min=26 / scenecut=0 / intra_refresh=0 / rc_lookahead=40 / rc=cbr / mbtree=1 / bitrate=3500 / ratetol=1.0 / qcomp=0.60 / qpmin=0 / qpmax=69 / qpstep=4 / vbv_maxrate=3500 / vbv_bufsize=3500 / nal_hrd=none / filler=0 / ip_ratio=1.40 / aq=1:1.00
Language                                 : English
Tagged date                              : UTC 2017-04-12 22:56:07

Audio
ID                                       : 2
Format                                   : AAC
Format/Info                              : Advanced Audio Codec
Format profile                           : LC
Codec ID                                 : 40
Duration                                 : 1 h 52 min
Source duration                          : 1 h 52 min
Source_Duration_LastFrame                : -20 ms
Bit rate mode                            : Constant
Bit rate                                 : 129 kb/s
Channel(s)                               : 2 channels
Channel positions                        : Front: L R
Sampling rate                            : 48.0 kHz
Frame rate                               : 46.875 FPS (1024 spf)
Compression mode                         : Lossy
Stream size                              : 104 MiB (5%)
Source stream size                       : 104 MiB (5%)
Language                                 : English
Default                                  : Yes
Alternate group                          : 1
Tagged date                              : UTC 2017-04-12 22:56:07

Other
ID                                       : 3
Type                                     : Time code
Format                                   : QuickTime TC
Duration                                 : 1 h 52 min
Time code of first frame                 : 00:00:00:00
Time code, striped                       : Yes
Default                                  : No
Tagged date                              : UTC 2017-04-12 22:56:07




SINGLE DIRECT FAST LINKS

Code:
http://www.heroupload.com/a812452f3d555966/Naalu.Peruku.Nalladhuna.Edhuvum.Thappilla.Movie.2017.Tamil.WEB-HD.1080p.AVC.AAC-TMV.mp4
700MB LINKS

Code:
http://www.heroupload.com/6b5c06d543e12070/Naalu.Peruku.Nalladhuna.Edhuvum.Thappilla.Movie.2017.Tamil.WEB-HD.1080p.AVC.AAC-TMV.mp4.001
http://www.heroupload.com/a04c29741cdefb60/Naalu.Peruku.Nalladhuna.Edhuvum.Thappilla.Movie.2017.Tamil.WEB-HD.1080p.AVC.AAC-TMV.mp4.002
http://www.heroupload.com/4bf4980a7f50db4e/Naalu.Peruku.Nalladhuna.Edhuvum.Thappilla.Movie.2017.Tamil.WEB-HD.1080p.AVC.AAC-TMV.mp4.003
http://www.heroupload.com/f9854b46cf2b6519/Naalu.Peruku.Nalladhuna.Edhuvum.Thappilla.Movie.2017.Tamil.WEB-HD.1080p.AVC.AAC-TMV.mp4.004