Code:
General
Format                                   : MPEG-4
Format profile                           : Base Media
Codec ID                                 : isom (isom/iso2/avc1/mp41)
File size                                : 2.25 GiB
Duration                                 : 2 h 3 min
Overall bit rate                         : 2 611 kb/s
Writing application                      : Lavf57.25.100

Video
ID                                       : 1
Format                                   : AVC
Format/Info                              : Advanced Video Codec
Format profile                           : [email protected]
Format settings, CABAC                   : Yes
Format settings, ReFrames                : 4 frames
Codec ID                                 : avc1
Codec ID/Info                            : Advanced Video Coding
Duration                                 : 2 h 3 min
Bit rate                                 : 2 493 kb/s
Width                                    : 1 920 pixels
Height                                   : 1 080 pixels
Display aspect ratio                     : 16:9
Frame rate mode                          : Constant
Frame rate                               : 24.000 FPS
Color space                              : YUV
Chroma subsampling                       : 4:2:0
Bit depth                                : 8 bits
Scan type                                : Progressive
Bits/(Pixel*Frame)                       : 0.050
Stream size                              : 2.15 GiB (95%)
Writing library                          : x264 core 148
Encoding settings                        : cabac=1 / ref=3 / deblock=1:0:0 / analyse=0x3:0x113 / me=hex / subme=7 / psy=1 / psy_rd=1.00:0.00 / mixed_ref=1 / me_range=16 / chroma_me=1 / trellis=1 / 8x8dct=1 / cqm=0 / deadzone=21,11 / fast_pskip=1 / chroma_qp_offset=-2 / threads=16 / lookahead_threads=2 / sliced_threads=0 / nr=0 / decimate=1 / interlaced=0 / bluray_compat=0 / constrained_intra=0 / bframes=3 / b_pyramid=2 / b_adapt=1 / b_bias=0 / direct=1 / weightb=1 / open_gop=0 / weightp=2 / keyint=96 / keyint_min=9 / scenecut=0 / intra_refresh=0 / rc_lookahead=40 / rc=crf / mbtree=1 / crf=23.0 / qcomp=0.60 / qpmin=0 / qpmax=69 / qpstep=4 / vbv_maxrate=5083 / vbv_bufsize=5083 / crf_max=0.0 / nal_hrd=none / filler=0 / ip_ratio=1.40 / aq=1:1.00
Language                                 : English

Audio
ID                                       : 2
Format                                   : AAC
Format/Info                              : Advanced Audio Codec
Format profile                           : LC
Codec ID                                 : 40
Duration                                 : 2 h 3 min
Duration_LastFrame                       : -5 ms
Bit rate mode                            : Constant
Bit rate                                 : 112 kb/s
Channel(s)                               : 2 channels
Channel positions                        : Front: L R
Sampling rate                            : 44.1 kHz
Frame rate                               : 43.066 FPS (1024 spf)
Compression mode                         : Lossy
Stream size                              : 99.0 MiB (4%)
Language                                 : English
Default                                  : Yes
Alternate group                          : 1






SINGLE DIRECT FAST LINKS

Code:
http://www.heroupload.com/56e25537dc1ba357/Kattappava.Kanom.2017.1080p.WEB-HD.AVC.MP4.ESubs.Tamil-MTR.mp4
700MB LINKS

Code:
http://www.heroupload.com/3d00d9a5c72e3efb/Kattappava.Kanom.2017.1080p.WEB-HD.AVC.MP4.ESubs.Tamil-MTR.mp4.001
http://www.heroupload.com/3eeacc8c493ff21f/Kattappava.Kanom.2017.1080p.WEB-HD.AVC.MP4.ESubs.Tamil-MTR.mp4.002
http://www.heroupload.com/4cad10e8db2be99d/Kattappava.Kanom.2017.1080p.WEB-HD.AVC.MP4.ESubs.Tamil-MTR.mp4.003
http://www.heroupload.com/2e2eb3885cbf8b18/Kattappava.Kanom.2017.1080p.WEB-HD.AVC.MP4.ESubs.Tamil-MTR.mp4.004
http://www.heroupload.com/d8b7c6f62f9c801a/Kattappava.Kanom.2017.1080p.WEB-HD.AVC.MP4.ESubs.Tamil-MTR.srt