Code:
General
Format                                   : MPEG-4
Codec ID                                 : M4V  (isom/avc1/mp42)
File size                                : 4.85 GiB
Duration                                 : 2 h 3 min
Overall bit rate mode                    : Variable
Overall bit rate                         : 5 615 kb/s
Encoded date                             : UTC 2017-04-12 14:33:05
Tagged date                              : UTC 2017-04-12 14:33:05

Video
ID                                       : 1
Format                                   : AVC
Format/Info                              : Advanced Video Codec
Format profile                           : [email protected]
Format settings, CABAC                   : Yes
Format settings, ReFrames                : 2 frames
Codec ID                                 : avc1
Codec ID/Info                            : Advanced Video Coding
Duration                                 : 2 h 3 min
Bit rate mode                            : Constant
Bit rate                                 : 5 000 kb/s
Maximum bit rate                         : 11.9 Mb/s
Width                                    : 3 840 pixels
Height                                   : 2 160 pixels
Display aspect ratio                     : 16:9
Frame rate mode                          : Constant
Frame rate                               : 24.000 FPS
Color space                              : YUV
Chroma subsampling                       : 4:2:0
Bit depth                                : 8 bits
Scan type                                : Progressive
Bits/(Pixel*Frame)                       : 0.025
Stream size                              : 4.31 GiB (89%)
Encoded date                             : UTC 2017-04-12 14:33:05
Tagged date                              : UTC 2017-04-12 14:33:05

Audio #1
ID                                       : 2
Format                                   : AAC
Format/Info                              : Advanced Audio Codec
Format profile                           : LC
Codec ID                                 : 40
Duration                                 : 2 h 3 min
Bit rate mode                            : Variable
Bit rate                                 : 96.0 kb/s
Maximum bit rate                         : 99.8 kb/s
Channel(s)                               : 2 channels
Channel positions                        : Front: L R
Sampling rate                            : 48.0 kHz
Frame rate                               : 46.875 FPS (1024 spf)
Compression mode                         : Lossy
Stream size                              : 82.5 MiB (2%)
Language                                 : English
Encoded date                             : UTC 2017-04-12 14:33:05
Tagged date                              : UTC 2017-04-12 14:33:05

Audio #2
ID                                       : 3
Format                                   : AC-3
Format/Info                              : Audio Coding 3
Mode extension                           : CM (complete main)
Format settings, Endianness              : Big
Codec ID                                 : ac-3
Duration                                 : 2 h 3 min
Bit rate mode                            : Constant
Bit rate                                 : 512 kb/s
Channel(s)                               : 6 channels
Channel positions                        : Front: L C R, Side: L R, LFE
Sampling rate                            : 48.0 kHz
Frame rate                               : 31.250 FPS (1536 spf)
Bit depth                                : 16 bits
Compression mode                         : Lossy
Stream size                              : 452 MiB (9%)
Language                                 : English
Encoded date                             : UTC 2017-04-12 14:33:05
Tagged date                              : UTC 2017-04-12 14:33:05



SINGLE DIRECT FAST LINKS

Code:
http://www.heroupload.com/7d67fe5de9ecfff0/Kattappava.Kanom.2017.4K.Untouched.UHD.MP4.Tamil-MTR.mp4
1GB LINKS


Code:
http://www.heroupload.com/35f9827ad9581903/Kattappava.Kanom.2017.4K.Untouched.UHD.MP4.Tamil-MTR.mp4.001
http://www.heroupload.com/8fdbf2bdcf3f696f/Kattappava.Kanom.2017.4K.Untouched.UHD.MP4.Tamil-MTR.mp4.002
http://www.heroupload.com/78b1061678bbf2a9/Kattappava.Kanom.2017.4K.Untouched.UHD.MP4.Tamil-MTR.mp4.003
http://www.heroupload.com/71ad0ca980312b3b/Kattappava.Kanom.2017.4K.Untouched.UHD.MP4.Tamil-MTR.mp4.004
http://www.heroupload.com/8b1abb4c26285601/Kattappava.Kanom.2017.4K.Untouched.UHD.MP4.Tamil-MTR.mp4.005