Code:
General
Format                                   : MPEG-4
Format profile                           : Base Media / Version 2
Codec ID                                 : mp42 (mp42)
File size                                : 6.73 GiB
Duration                                 : 2 h 29 min
Overall bit rate                         : 6 454 kb/s
Codirector                               : codirector
Production studio                        : studio
ContentType                              : Unknown Type
Encoded date                             : UTC 2017-04-21 06:29:29
Tagged date                              : UTC 2017-04-21 06:29:29

Video
ID                                       : 1
Format                                   : AVC
Format/Info                              : Advanced Video Codec
Format profile                           : [email protected]
Format settings, CABAC                   : Yes
Format settings, ReFrames                : 1 frame
Format settings, GOP                     : M=1, N=30
Muxing mode                              : Container [email protected]
Codec ID                                 : avc1
Codec ID/Info                            : Advanced Video Coding
Duration                                 : 2 h 29 min
Bit rate                                 : 6 199 kb/s
Width                                    : 1 920 pixels
Height                                   : 1 080 pixels
Display aspect ratio                     : 16:9
Frame rate mode                          : Constant
Frame rate                               : 29.970 (30000/1001) FPS
Standard                                 : Component
Color space                              : YUV
Chroma subsampling                       : 4:2:0
Bit depth                                : 8 bits
Scan type                                : Progressive
Bits/(Pixel*Frame)                       : 0.100
Stream size                              : 6.46 GiB (96%)
Language                                 : English
Color range                              : Limited

Audio
ID                                       : 2
Format                                   : AC-3
Format/Info                              : Audio Coding 3
Mode extension                           : CM (complete main)
Format settings, Endianness              : Big
Codec ID                                 : ac-3
Duration                                 : 2 h 29 min
Bit rate mode                            : Constant
Bit rate                                 : 256 kb/s
Channel(s)                               : 6 channels
Channel positions                        : Front: L C R, Side: L R, LFE
Sampling rate                            : 48.0 kHz
Frame rate                               : 31.250 FPS (1536 spf)
Bit depth                                : 16 bits
Compression mode                         : Lossy
Stream size                              : 273 MiB (4%)
Title                                    : Surround
Language                                 : English
Default                                  : Yes
Alternate group                          : 1




SINGLE DIRECT FAST LINKS

Code:
http://www.heroupload.com/f94c367741db17a4/Winner.2017.Telugu.WEB-HD.1080p.UNTOUCHED.AVC.DD5.1-TMV.mp4
1GB LINKS

Code:
http://www.heroupload.com/b137ddc54807d783/Winner.2017.Telugu.WEB-HD.1080p.UNTOUCHED.AVC.DD5.1-TMV.mp4.001
http://www.heroupload.com/e90291005e6ac013/Winner.2017.Telugu.WEB-HD.1080p.UNTOUCHED.AVC.DD5.1-TMV.mp4.002
http://www.heroupload.com/263272265b9491d6/Winner.2017.Telugu.WEB-HD.1080p.UNTOUCHED.AVC.DD5.1-TMV.mp4.003
http://www.heroupload.com/62093923dbd06202/Winner.2017.Telugu.WEB-HD.1080p.UNTOUCHED.AVC.DD5.1-TMV.mp4.004
http://www.heroupload.com/2739320815f07568/Winner.2017.Telugu.WEB-HD.1080p.UNTOUCHED.AVC.DD5.1-TMV.mp4.005
http://www.heroupload.com/38ee2df95b68d305/Winner.2017.Telugu.WEB-HD.1080p.UNTOUCHED.AVC.DD5.1-TMV.mp4.006
http://www.heroupload.com/f6aa004df23880fe/Winner.2017.Telugu.WEB-HD.1080p.UNTOUCHED.AVC.DD5.1-TMV.mp4.007